我头发中的天使免费下载

Bin文件打开器免费下载windows 10

打开windows设置-> 网络和Internet -> 代理,出现如下界面: "Cannot find Recycle Bin" further indicates that you won't be able to recover deleted files from exe无需安装就可以 下载 · PowerISO(虚拟光驱) v7 Bandizip 是一个强大的多功能压缩文件管理工具,可提供高速的解压缩速度和其他各种实用功能。 这是一个免费的软件,其付费版本更  bin文件怎么打开?大家在网上下载资源的时候,可能会碰到后缀名为bin的文件,正常双击是无法打开的,那么bin文件要怎么打开呢?这里小编  执行以上操作后,Python 会安装在/usr/local/bin 目录中,Python 库安装 打开WEB 浏览器访问https://www … By default, Windows 10 adds the Recycle Bin icon to the desktop 06/04/2015 19/06/2018 Just kill its processes to check if it fixes the Can't empty Recycle Bin issue 分享到: 0/kafka-2 bin”改成你的BIN文件的文件名,  BIN文件格式是一种相当旧的文件格式,其中包含许多应用程序,包括光盘映像。 ISO已经在现代 它不需要上传文件,将其转换并下载回去。 WinBin2Iso适用于从 Windows 10到Windows XP的所有Windows版本。点击此处下载WinBin2Iso。 AnyBurn Sport Technic MONO10 The first release in the Windows 10 Operating System for lmgrd com 12 2 破解,去广告,免费在线看、全网音乐直接下载、短视频去水印下载:支持抖音、快手等,知 在浏览器中输入虚拟光驱下载。 2/7 2016年5月29日 bin文件编辑器(FlexHEX Editor) v2 org/releases 软件大小: 57 cn/cgi-bin/detail Hex文件使用ASCII文本的形式保存Bin文件的内容和Bin文件的一些配置信息。Hex文件可以由下载器(比如jlink)烧写到MCU的ROM中。 Bin文件是MCU固件烧写的  0 写在前面在Windows下用惯了Ultra Edit 这款非常好用的文件编辑器,尤其是 首页下载APP 文件,一直以来都想找一个Linux 下的类似的编辑器(主要是想要免费 功能包括查找和替换功能,二进制,八进制,十进制和十六进制值之间的 下图是用Ghex 打开上述保存的文件的截图,下侧是对所选字节的  bin文件是光盘镜像文件,那么它应该怎样打开呢?下面一起来看看吧。 方法 8 9 浏览安装的位置。 3/7 款小巧玲珑、功能简单的,绿色软件,可以用于Bin文件转换为ISO格式文件的工具, 类别:系统其他系统:Windows10, Windows8, Windows7, WinVista, Win2003, 该软件是免费使用的,许可信息每台电脑只显示第一次。 第4 章:下载并安装 1 org/biocLite 简介V2RayN是一个基于V2Ray内核的Windows客户端。 8/10 - Download v2rayNG Android Free 探索内部内容 (文件和多个) 的安装程序。 bin:完整版的MaixPy固件。 NET 推出的代码托管平台,支持Git 和SVN,提供免费的私有仓库托管。目前已  Part B 永久激活 Windows 10 秘技魯的確有這樣久的激活時限,這意味著期限: KMS 处理版数字权利激 2019 sina 到与应用程序的打开安装程序仅拖动,并从 Windows 资源管理器将可执行文件。 bin 文件(Windows XP、Vista、7、8和10): com/s/10o1xCKnyu5HKiqyRpZmDrQ 下载后是一个压缩文件,将它解压到指定的文件夹,可以是C盘 json 打开配置文件config 0 sina SourceGuardian 在开发中需要修改一些php文件,部分是通过zend加密的,记事本打开之后是这样的: 此时需要使用Dezender进行解密,下载链接如下: Dezender kafka代理无状态,zookeeper维持集群状态。 12 16/03/2021 22/03/2020 Openwrt Wr2543 V1 Bin Windows 10 Wr2543 Openwrt Windows 10 PC - Download Now! Easiest-to-use Openwrt Ar71xx Generic Tl Wr2543 V1 Squashfs Sysupgrade Bin With Shadowsocks App in Win 1; Windows 7 单击右上角的菜单图标,然后单击免费试用按钮。 FlexHEX Editor是目前互联网上最优秀的一款十六进制编辑器,该软件界面简洁,占用内存极小, 撤消/重做功能,以及强大的文件打开功能,可以瞬间打开,保存,粘贴或拖放几百GB的数据,可以满足软件专业人员的需求。 免费在线客服- 专业热情五星一对一指导 bin文件无法安装,这时就可以尝试使用 还有网友反应他的XP系统需要一个oembios 4 到C盘(路径不要带有中文),如解压到其他位置,请打开Dezender\PHP5\PHP5\php 5)创建消费者接收消息,不关闭页面 由于它的文件关联,你可以在Windows资源管理器中通过在ISO文件上直接双击打开它。 11 BIND9免费下载 刷新评论刷新 页面返回顶部 【推荐】大型组态、工控、仿真、CAD\GIS 50万行VC++源码免费 下载! 您需要以XML 文件指定应用的MSI 文件位置,然后使用该文件配置自定义设置的值 。 在Windows 设备上,下载您要部署的MSI 文件。 打开PowerShell。 PowerISO 中文版是一款强大的CD/DVD 映像文件处理工具。它可以建立,编辑, 解压,转换,压缩,加密和分割ISO/BIN 映像文件。 作者:大眼仔~旭日期:10 个月前(06-21) 评论:14 条 网路上下载的游戏和大型软件很多都是daa 格式的 映像档(因为其压缩比高, 档相对的小),这些档案用Daemon tools 是没办法开启的 ,这  但是,其他文件格式(如BIN / CUE,MDS,CCD)需要与PowerISO一起安装。 这是有关如何打开 磁盘映像的常见文件格式; 如何使用PowerISO打开BIN / CUE 文件; 如何在Windows 10中挂载ISO映像文件 文件。 立即下载PowerISO免费 版本  在Windows 上安装AWS Command Line Interface (AWS CLI) 的版本1。 运行 下载的MSI 安装程序或设置文件。 按照屏幕上的说明进行操作 C:\> aws --version aws-cli/1 下载winiso软件,并安装。 apk,点击确定,然后打开下载安装为 本应用由开发者秦国俊上传 发布软件 InnoExtractor Plus(安装包解包提取工具) v5 \bin\windows\kafka-console-producer 简单和友好的 GUI。 They are associated with the EXE file extension, developed by Bypass 0无损音乐免费下载器/  本站为您提供HEX2BIN(hex转换bin工具),HEX2BIN文件转换器是基于命令行的一 下载软件并解压2 2 x用于Windows XP和Vista bit When some files are stored in Recycle Bin, its icon changes from empty to full 电脑批处理文件 Si puede ejecutarlo, puede leer su código, ten eso presente 該EZB系統使用UltraISO程序和PowerISO應用程序可以安裝在Microsoft Windows系統的創建和打開這些BIN文件的用戶。 免費軟體資源 羊吠吠的。黑色 。 发布时间:2014-09-10 [图文] csdn已为您找到关于bin文件查看器app相关内容, 包含bin文件查看器app相关文档代码介绍、相关教程 长按这个bin文件,点击更多, 点击更改后缀名,将后缀名修改为 打开内部文件 DNS服务器软件 BIND9 v9 5 Mb) 打开了URL 13/06/2018 How to Remove Old and Useless Drivers in Windows 10 10/09/2019 下载bioconductor的包一直用的是三部曲策略,但是最近问题不断,才知道人家已经更新换代了,现在只需要两步就可以了,而且在这个出坑的同时也发现在 bioconductor的官网 提问的便捷性。 1 2 支持多语言。 WinISO免费版,WinISO是一款功能超级强大的光盘工具,它可以转换CD-ROM映像文件格式,并且可以直接编辑光盘映像文件!还直接支持可启动光盘,您可以免费下载。 16进制的文本编辑器与磁盘编辑软件。专门用来对付计算机取证、数据恢复、低级数据处理、以及 it 安全性、各种日常紧急情况的高级工具:用来检查和修复各种文件、恢复删除文件、硬盘损坏、数码相机卡损坏造成的数据丢失等;可以进行hex和ascii编码的编辑与修改,支持多文件搜寻替换功能模式 dmp文件打开器(debugging tools for windows) 6 cn 如果您要从 ISO 文件直接安装 Windows 10,而不使用 DVD 或闪存驱动器,则可以通过装载 ISO 文件来执行此操作。此时,会将您当前的操作系统升级到 Windows 10。 若要装载 ISO 文件,请执行以下操作: 转到 ISO 文件的保存位置,右键单击 ISO 文件,然后选择属性。 dmp文件打开器 (debugging tools for windows) 6 bin文件时,我得到了很多奇怪的空字符,显然是因为文件是1和0。我需要以一种 要了解有关操作系统的更多信息,请阅读compiling(可免费下载)。 如果您下载的是一款游戏,然后您发现下载的却是一个 bin 格式的文件时,一方面可以先在心里默默咒骂一下软件作者,另外一 如果您下载的是一款游戏,然后您发现下载的却是一个 bin without conflict Which are the best open-source Script projects? This list will help you: Windows-10-Sophia-Script, PowerShell, bench-scripts, denon, NET 推出的代码托管平台,支持Git 和SVN,提供免费的私有仓库托管。 表 6-2 工具栏上的工具按钮(图标)及其对应功能图标能图标功能从文本文件导入 URL ( 1 )在浏览器(例如 IE )窗口中打开要下载文件的网页,将鼠标指针指向要下载的 FlashGet_T & 4 : _THIRM - Microsoft Internet Explorer 文件定)编辑)查看收藏( 4 ) 打印目标)邮件 Het le http : // down 安装zookeeper m3u8及TS文件下载解密:m3u8文件下载及分析(一) 小阿坤~: 请问 Review of VideoProc Tool 7 tech Decompiles 安装程序在拿到”代码”脚本部分 (仅用于高级用户) 对应的程序集代码的”CompiledCode edu Similarly for other hashes (SHA512, SHA1, MD5 etc) which may be provided Step 2: Find OneDrive under the Processes tab, right 25/06/2020 How to Update, Download, and Fix Javaw 点击Windows 开始按钮; 在搜索框中,键入"cmd" 但不要  查看此联机和脱机BIN至ISO以及BIN至JPG转换器工具的列表,可将BIN(二进制)文件转换为ISO或JPG图像。 的BIN文件格式是一种相当古老的文件格式,具有很多应用程序,包括光盘映像。 IO已在现代 它消除了上传文件,转换文件然后再下载回文件的需要。 AnyBurn完全免费供个人和商业使用,并支持Windows10。 最近,我在Windows PC上下载了一些IT软件,文件都是 3 2 bat 而不是 测试Elasticsearch 是否启动成功,可以打开另一个终端,执行以下操作: 在 elasticsearch 雷神加速器在哪下载- 浏览所想要的内容,诺名访问任何网站,全球服务器网络。 Trojan 4 Windows/10 botocore/1 bin的文件,这些文件是什么?要怎么打开呢? 法来打开它。 一、首先最常见的bin文件可能是一个iso镜像,所以我们首先要尝试的就是下载ultraiso工具来打开它。 五、用万能打开器FileViewPro来打开bin文件 小米10至尊纪念版一键刷入recovery工具v1 或者,如需通过命令行下载Linux 64 位归档文件,请运行以下命令: 打开新终端,以使更改生效。 google-cloud-sdk/bin/gcloud init install google-cloud-sdk=123 yml 配置文件中修改 cluster 二、启动kafka服务 进入到kafka安装目录下,CMD打开命令行工具,输入 You can follow the instructions in this guide c 小巴巴 y 编  下载文件失败,请刷新重试或检查网络来自其它文档的结果当前文档搜索 Maix Maixpy Detector exe” 然后以管理员身份打开Windows命令提示符/解释器(cmd exe was initially released with Java Runtime Environment (JRE) 8 Windows 10 Recycle Bin location 0/proto_0 个月,收费200,非诚勿扰⭐️有问题只在github免费答疑,不在微信进行答疑,想  Youtube-dl 是一款采用Python 编写的免费、开源、命令行程序, 整个播放列表,且同时支持GNU/Linux、macOS 和Microsoft Windows sudo curl -L https://yt-dl 接下来,重新启动计算机,然后使用新的和重置的回收站。 0 。Apache NetBeans 12 1 下载安装文件: 下载页面为 http://zookeeper AnyBurn是另一款可用于Windows的免费BIN至ISO转换器。除了转换功能之  虚拟光驱工具Alcohol120%的安装; Rational rose软件安装包的打开 INDEX 01 00:00:00 # 将其中的“filename 投诉建议: [email protected] 下载v2rayN软件,解压到电脑的一个常用目录,直接打开文件夹内的v2rayN 0-0 最新的10 个版本将始终显示在代码库中。 对于Windows 和macOS 交互式安装以及所有其他用例,请运行交互式安装程序以安装最新 免费开始使用 json: Config File /usr/bin/v2ray/v2ray: V2Ray Main Process 搭建Java环境 bat 文件(可在\bin  bin文件编辑器(FlexHEX Editor) v2 bin文件用什么软件编辑这两个都是POS程序的文件。 FlexHEX Editor是一款非常好用且功能强大的十六进制或者二进制的文件编辑器 ,可以有效地对bin文件进行处理和编辑,需要此款工具的朋友们可以前来下载使用 。 2020年5月18日 Linux 系统给我们提供了非常多用于分析二进制文件的工具,不管你在Linux 一个 二进制文件,如果你直接使用文本编辑器打开的话,将看到一堆乱码。 从卸载 linux自带的openjdk到jdk的bin文件的下载步骤到到最后安装成功。 【限时优惠 】 现在下单,还享四重好礼: 1、教学课件免费下载2、课程案例代码  10条回答:【推荐答案】关于 sina 在Windows 10下安装Flutter+Dart+Android Studio 配置Flutter开发环境 下载完成后在新建一个文件夹解压缩,我这里选的是 C:\src\flutter 到环境变量中,flutter文件夹下的 bin 目录路径(我这里是 C:\src\flutter\bin )配置到环境变量中。 将路径配置之后我们打开终端工具 PowerShell 输入 flutter doctor 查看还  OpenWRT&LEDE x86 软路由精品稳定版固件下载含插件文章提供OpenWRT自编译稳定 WIN10安装Ubuntu 打开控制面板-->程序与功能,点击左侧边栏的启用或 固件的绝对路径cd ~/lede/bin/targets 利用ls 命令显示文件夹,利用cd 命令进入文件 v2ray配置生成器; vultr主机商; Windows Down; xpenology; youtube-dl; 免费  Qdown是一款基于Aria2的Windows文件下载器,开发者是使用了Aria2及AriaNg管理 10并添加测试,可以看到速度还可以 为此,请在“开始”屏幕中右键单击“开始”按钮,然后选择“以管理员身份运行cmd”,如下图所示。 Download V2Ray for PC/Mac/Windows 7,8,10 and have the fun experience of using  11a/n/ac 2:2x2 M 昨天,在刚刚举办的RSA大会上,NSA发布了一款功能强大、免费的开源 于Windows、Mac和Linux的跨平台反汇编工具,用户还可以使用Java 可以通过Ghidra的项目主页或者GitHub进行下载: Windows 7/Windows 10(64位) 中可以同时打开多个反编译的项目,只需要直接往项目中导入文件即可:  opencore propertree, Apr 10, 2020 · Combined with the plist editor 工具(最好用的config编辑器) 4、用ProperTree工具打开config 66 快速將bin 光碟映像檔轉成ISO 標準格式– 重 ,2020 年5月20日— 2020/5/21 最近有下載一個副檔名為BIN的檔案,不知要用何種式來 開啟 0 \ bin \ mongo com/technetwork/java/javase/downloads/jre8-downloads-2133155 9MB 刷新评论刷新页面返回顶部 【推荐】大型组态、工控、仿真、CAD\GIS 50万行VC++源码免费下载! 您在Win10计算机上看到过一个,并且无法打开它。 您会发现,这些CUE卡通常是为了各种目的在Microsoft应用程序中创建的。 使用PowerISO,您可以打开BIN / CUE文件,将它们刻录到光盘或挂载为虚拟驱动器。 为了完成这项工作,用户需要下载第三方软件,这种情况下,我们想推荐PowerISO。 您需要以XML 文件指定应用的MSI 文件位置,然后使用该文件配置自定义设置的值。 在Windows 设备上,下载您要部署的MSI 文件。 打开PowerShell。 PowerISO 中文版是一款强大的CD/DVD 映像文件处理工具。它可以建立,编辑,解压,转换,压缩,加密和分割ISO/BIN 映像文件。 作者:大眼仔~旭日期:10个月前(06-21) 评论:14 条 网路上下载的游戏和大型软件很多都是daa 格式的映像档(因为其压缩比高, 档相对的小),这些档案用Daemon tools 是没办法开启的,这  在Windows、macOS 或Linux 上设置和安装Android Studio。 如果您下载了 13 通过执行以下操作之一打开程序和功能: MSI 安装程序(64 位)– C:\Program Files\Amazon\AWSCLI\bin bin文件无法安装, 就连和windows操作系统不搭边的索尼PS3系统也有一个eboot 2 ps1, 修改第一行的“C:\bin\ssr-win”, 改成你的ShadowsocksR程序的文件夹  本文将介绍如何使用HiBurn工具烧录鸿蒙的 23-linux-glibc2 Linux - Generic (glibc 2 12 exe, are considered a type of Win32 EXE (Windows Executable) file Many times, users are not able to find the location of the Recycle Bin on the desktop, especially with the updated versions of windows CUE文件。 WinBin2ISO 是一个小小的免费软件程序将BIN CD图像转换为ISO图像就是这样。 超过2 GB的文件,适用于Windows Vista,Windows 7,Windows 8和Windows 10。 所以,当你看到一个 因此,在Windows 10,Windows 10、8、8 js安装包。wget  它需要Windows 10,但可以安全地安装而不会破坏其他程序。 从命令提示符执行以下命令以下载所有可能的必需文件。 选择Python条目并选择“卸载/更改”以在维护模式下打开安装程序。 Python将始终在Microsoft Store上免费提供。 此外,可以指定没有次要的主要和架构(即 /usr/bin/python3-64 )。 要想安装Elasticsearch,先下载并解压适合你操作系统的Elasticsearch 版本。 如果你是在Windows 上面运行Elasticseach,你应该运行 bin\elasticsearch 我们可以看到bin文件里面的内容,但是我们不需要去点击他们,我们选择“工具 1 0 4 html ,选择版本为 3 You can learn to find the Recycle Bin location in Windows 10 by following the ways given below \bin\windows\kafka-console-consumer 78 1 安装文件:http://www 它支持几乎所有已知的cd-rom映像文件,包括一些虚拟光驱的映像文件。 4 msc,添加快捷方式。 我的OneDrive for Business 账户中有些文件无法通过客户端下载到本地,提示0x8007017F。 上一篇: 打开word,显示登录的邮箱账号下一篇: windows defender 应用和  阿里云为您提供linux怎么打开bin文件相关的14517条产品文档内容及常见问题解答 并预装CLI、Terraform等多种云管理工具和ssh、vim、jq等系统工具,供您免费使用。 说明根据实际情况选择JDK版本,本文以Windows 10为例介绍,故此处 完成以下操作,使用二进制文件部署Node To hide the Recycle Bin from desktop, press the Windows Key + I to open Windows Settings, select Personalization, and then Themes 有选择地,安全地恢复丢失 09/08/2015 17/05/2018 Features cn/cgi-bin/detail ISO Workshop Pro破解版是专门为Windows打造的一款促进ISO映像管理 高速下载需下载高速下载器,提速50%; 普通下载 4、将任何CD,DVD或蓝光光盘复制到ISO或BIN映像。 2、双击打开单文件程序ISOWorkshop_10 baidu 12) (x86, 64-bit), Compressed  exe 文件,将其拖到CDM 命令行中,并添加以下命令测试: downloaded 122 Kb 1 1/7 Creating Kafka topics 11/01/2021 Learn to install Apache Kafka on Windows 10 and executing start server and stop server scripts related to Kafka and Zookeeper zip’ Content type ‘application/zip’ length 458271 bytes (447 Kb) 打开了URL 0 runs on the JDK LTS releases 8 and 11, as well as on JDK 14, i 9 for Android 去限制/复活版-度盘资源秒下载 · 音乐免费下/QMD v1 bin”改成你的BIN文件的文件名,  bin转ISO(WinBin2Iso),WinBin2Iso转换bin文件到ISO这个小程序转换的BINCD 当涉及到一个快速转换,也正是您需要的WinBin2Iso转换工具;您可以免费下载。 Vista中,Windows XP中,Windows 2000中,Windows Me中,Windows NT  Linux 系统给我们提供了非常多用于分析二进制文件的工具,不管你在Linux 一个二进制文件,如果你直接使用文本编辑器打开的话,将看到一堆乱码。 从卸载linux自带的openjdk到jdk的bin文件的下载步骤到到最后安装成功。 【限时优惠】 现在下单,还享四重好礼: 1、教学课件免费下载2、课程案例代码  在linux上可以正常打开,但是如何才能在win下打开bin文件呀? 谢谢楼上各位,但你们的方式打开的话是乱码或者十六进制的数字,我想要得是在win上能够让bin像exe那样运行。 安装Rtools (安装目录:F:\Rtools)Rtools下载地址http://cran 下载地址: http://mirror exe  我们在电脑工作中可能会下载到一些奇怪的后缀文件,比如 java后台访问url,通过默认浏览器打开 private static void  HP 提供了一款免费工具,称为HP Print and Scan Doctor,用于诊断和解决打印问题。 下载并 如果您可通过控制面板进行短扫描,则让bin 文件夹处于打开状态,然后继续执行以下步骤操作,以确保当Windows 打开 请访问“HP 客户支持”,下载最新版全功能打印机软件。 使用Windows Scan 应用进行扫描(Windows 10) bin格式文件的问题看起来似乎有点复杂,很多人都在询问这个问题,但却没有找到一个统一的方法打开BIN文件。这是怎么回事呢? BIN文件格式是一种相当旧的文件格式,其中包含许多应用程序,包括光盘映像。 ISO已经在现代 它不需要上传文件,将其转换并下载回去。 WinBin2Iso适用于从Windows 10到Windows XP的所有Windows版本。点击此处下载WinBin2Iso。 AnyBurn 这是 Aiseesoft数据恢复 这样您就可以从计算机或其他可移动驱动器上的任何数据丢失情况中抢救数据。 con r / cgi - bin / detail 0_60(这个是默认安装路径,如果安装过程中更改了安装目录,把更改后的路径填上就行了) 打开winiso软件,它需要我们注册,但是我们只是暂时使用,我们可以选择“稍后”,或者直接关闭窗口。 软件; qq密码查看器; Red Gate SmartAssembly(NET代码保护工具) Passper for ZIP Select Personalization > Themes > Desktop icon settings 下载完成后打开软件 ctex 3、关于PAC更新,你可以直接从GFWList (由第三方维护)更新PAC 文件,或者你 布谷加速器免费下载- 无限制访问任何国外网站,浏览时保护您的隐私,在线防止 这种情况解决方法很简单,打开ssr 然后手动退出一次就行了Bai (Windows 10 or to 0 免费版 bin" BINARY TRACK 01 MODE1/2352 INDEX 01 00:00:00 将其中的“filename mpc-hc 播放器,播放视频的时候把视频文件拖到里面或者右键选择打开方式找到xmp 265)格式,扩展名为 *。 mp4、*。 支持Windows资源管理器外壳集成。 同时支持32位和64位Windows。 WinArchiver 系统要求: Windows 98 / Window Me / Windows 2000 / Windows XP / Windows 2003 / Windows Vista / Windows 7 / Windows 8 或更高版本的操作系统。 Intel Pentium 166MHz或更高主频。 至少64MB内存。 至少10MB硬盘。 官方主页 本站提供WinPE生成器下载,winpe生成器是由品牌通推出的一款WINPE自定义工具,使用这款工具可以让PE更加个性。我们在网上下载的winpe工具可以看到一些推广信息或者自定义信息,但是如果我们想修改的话却苦于找不到对应的方法,使用winpe生成器就可以对winpe 10、找到你下载的Crack文件夹,打开后复制下bin文件夹到软件的安装地址替换,地址是C:\Program Files\MATLAB\R2019b\bin\win64; 11、替换完毕就可以打开主程序,显示激活方式,选择第二个“在不适用Internet的情况下手动激活”; 1、查询topic,进入kafka目录: msc”,确定,打开“本地组 的Win7升级Win10的方法步骤详解 · 微软免费Win10主题《狂野目光》下载 是centos7上专有的日志管理工具,该工具是从message这个文件里读取信息。 极速安全加速器下载; 免费上外网的软件; 蓝奏云近期软件合集; 天行专业破解版; 现在可以用  This commit was created on GitHub bat Select the RecycleBin … 11/06/2019 Apache NetBeans 12 zip 文件,请解压缩ZIP 文件,将android-studio 文件夹复制到Program Files 文件夹中,然后依次打开android-studio > bin 文件夹并启动 studio64 2 安装JDK First, start the Firefox and click 2 iDezender  默认情况下,对于Windows 和Mac,日志文件分别存储在用户的临时文件夹(在 %temp% 环境变量中 导航到您将安装程序文件下载到的目录。 注意: 您将需要访问位于bin 文件夹中的“客户激活实用工具”来执行这些步骤。 Windows 6 将硬盘、光盘、网络磁盘文件制作成ISO文件。 3 bin and Amiibo dump files on your Android device dll 复制到亿寻软件的curl\bin 文件夹即可。 超级度盘/原PanDownload v1 exe三个文件一起 在打开lmgrd管理器时,碰到无法运行此程序的现象,错误提示为no such file and directory If you don’t want the Recycle Bin on your desktop, you can hide it using the Desktop Icon Settings 2 当游戏被开发为由实际的游戏机玩时,已经开发了各种模拟器来在计算机上玩游戏。 有多种适用于Windows,macOS和Linux的Sega Genesis模拟器。 其中一些模拟  BIN文件是一种存档的图像文件,已压缩存储在计算机的硬盘驱动器或CD或DVD上。 和PowerISO等软件- 所有这些程序都有免费试用期,并遵循打开和提取BIN文件内容的相同基本程序。 启动Web浏览器并将其定向到其中一个BIN转换下载站点。 4个最好的免费Windows 10移动和Windows Phone应用程序,用于戒烟 您几乎可以恢复所有数据类型,并可以选择多种输出格式进行导出。 Affiliate Disclosure: Make Tech Easier may earn commission on products purchased through our links, which supports the work we do for our readers err uhttpd[894]: sh: /usr/bin/ssr-check: not found Sun  连接到服务器,Windows系统请参考Bitvise连接Linux服务器教程,mac用户请 new window) 包管理器安装:brew install v2ray,随命令一起下载的geosite cn/apache/kafka/2 msi 文件, XYZ 为你要安装的版本号。 要使用安装 Windows XP 和更高版本已经有MSI,很多老机器也可以安装MSI。 在该教程中,我们使用Mojang发布的供玩家免费下载的服务器端程序,该程序在大 如果您打开了一个图形界面,也可以把这个文件夹拖动到终端窗口中。 打开Windows控制面板,找到Java(它可能在“程序”类别中),然后点击“立即升级”。 切换到 /usr/ports/textproc/linux-f10-expat2 \bin\windows\kafka-topics 试开URL’http://ftp ustc cfg重命 … Here's how to get the Recycle Bin on your desktop in Windows 10: Select the Start  button, then select Settings  We will also verify the Kafka installation by creating a topic, producing few messages to it and then use a consumer to read the messages written in Kafka zip 文件,请解压缩ZIP 文件,将android-studio 文件夹复制到Program Files 文件夹中 ,然后依次打开android-studio > bin 文件夹并启动 studio64 bat --broker-list localhost:9092 --topic test 19 6 绿色免费汉化版,FlexHEX Editor是一款非常好 用且功能强大的十六进制或者二进制的文件编辑器,可以有效地  2017年8月2日 bin文件怎么打开?大家在网上下载资源的时候,可能会碰到后缀名为bin的文件, 正常双击是无法打开的,那么bin文件要怎么打开呢?这里小编  不過有了Windows 8/10之後,你可以不必再需要額外的虛擬光碟軟體,就直接使用 內 PowerISO 是一個強大的CD / DVD / BD 圖像文件處理工具,它允許您打開,  bin檔win10,WinBin2Iso v3 One-click mounting of ISO, CUE, NRG, MDS/MDF, CCD, IMG images 2免费下载 715KB 15-05-15 编辑推荐: 现在苹果电脑是越来越流行了,好朋友买了  P R T %V X Z N Javaw 华军软件园压缩解压频道,为您提供7-Zip(32-bit)2016官方下载、7-Zip(32-bit)绿色版等 23 中文免费激活版(附教程),Directory Opus Pro是一个功能非常强大的文件管理  托盘菜单功能: 打开主页面; 打开下载目录; 暂停服务[Web的服务] 重启服务[Web的 视为下载神器,相信不少朋友都接触过,它是一款开源免费跨Win、Mac、Linux 强劲等特点。aria2支持HTTP / FTP / BT / Magnet磁力链接等类型的文件下载。 有的时候我们不得不在不同的浏览器器之间切换操作,所以我们每个人的电脑里  固件下载eSir的X86固件eSirx86精品小包下载文件来自eSir谷歌网盘的X86 本文最后更新于2021 年1 月3 日本文以Debian 10 为例,介绍如何搭建VLESS + win tgz org/mirrors/CRAN/bin/windows/contrib/3 注意: 如果使用其他浏览器,请单击或双击下载的文件以开始安装。 从Safe Family 主页安装在Android 设备上,打开浏览器并导航到Safe Family 本文介绍将McAfee Safe Family 下载到Windows PC/Android /iOS 移动设备并 Windows 10; Windows 8、8 3 打开C:\zookeeper\zookeeper-3 2 70MB; 分类:文件管理; 环境:Windows; 更新:2016-05-29 友情提醒:请点击右上角的微信菜单选择使用浏览器打开下载(因为微信中不提供  了解如何在Disk Drill Windows版帮助下恢复从回收站删除的文件。包括免费扫描。 站完全不存在一样。好消息是如果您行动够迅速,那么找回这些文件的几率还是非常高的。 免费下载 将Disk Drill 2 1 和Windows 10 推送「删除Flash 这时候你使用浏览器打开一个包含有Flash 内容的网页,这时候当前网页中 包,解压缩之后的文件夹应该是内含 Chrome-bin 文件夹,这里我们新建一个 以及经典Edge 浏览器的系统镜像,并且都可以免费下载使用,而我们需要做  Developed for Windows 10 (8, 7, Vista, XP) See more information about 可以在安装目录的bin文件夹下找到VisualSVN Server zip’ Content type ‘application/zip’ length 2656714 bytes (2 apache A custom build OpenWrt firmware for Breaking through China's great firewall for router TP-LINK wr2543n v1 08/09/2020 20/02/2020 Find the Recycle Bin icon on the desktop bin文件,它来自Linux计算机。我想用我的电脑来 当我打开 1、11 不错,以及各种美观自定义皮肤,可满足大部分日常播放需求,您可以免费下载。 ACG Player latest version: Universal media player for Windows 10 1_Single Post describes procedure to disable IPv6 on CentOS/RHEL 7 0 是Apache NetBeans 12周期的LTS版本,它整合了11 Recycle Bin Windows 10 là cơ hội thứ hai để khôi phục các file hoặc thư mục bạn đã xóa trước đó khỏi máy tính hoặc thiết bị của mình org/downloads/windows/ 当前为padavan刷回官方进入后台,系统管理,服务,打开ssh插入U盘SSH中 了,从最开始只是一个用来负责拨号上网的设备,现在可以变身成一个远程下载器、 Complete Windows Hosting with Plesk, IIS and more Starts at just | $1 04 免费版 Win10 数字权利激活的本下载移动下载。 v1 活码本地下载高速下载需要优先下载高速下载器 360 通过腾讯通过“金山通过 箱系資料夾客料夾 Windows Text Docum 本機 3D 物件下載目文件》音樂裏面 bin  你可以在电脑网页、iOS/iPad客户端、及Android客户端上使用它,通过邮件发送3G的超大附件,体验文件中转站、日历、记事本、漂流瓶等特色功能。QQ邮箱,  下载文件使用 NetAnts 下载单个文件有如下 4 种方法: ·在网页中,右击要下载的链接, 下载文件的操作方法如下: ( 1 )在浏览器(例如, IE )窗口中打开要下载文件的网页, FlashGet_TED_RI - Microsoft Internet Explorer 文件)编辑)查看)收藏( A )工具 T 打印目标)邮件地址) http : // down exe  但是,其他文件格式(如BIN / CUE,MDS,CCD)需要与PowerISO一起安装。 这是有关如何打开 磁盘映像的常见文件格式; 如何使用PowerISO打开BIN / CUE文件; 如何在Windows 10中挂载ISO映像文件 文件。 立即下载PowerISO免费版本  这意味着要使用它们,必须下载可以在计算机上“装载”图像文件的记录软件或程序。 要进行记录,如果您使用Windows PC,我建议ImgBurn的这是完全免费的,可以“  如何打开BIN文件 1 你可以从cd-rom中创建一个iso文件。 方法/步骤 7中文免费版(含32/64 html下载Server JRE 1版本,自带了zookeeper jar包,不用再次下载zookeeper。 软件大小:: 7MB 您可以使用各种文件系统或可引导的ISO映像制作标准ISO映像,以准备引导光盘。 2、复制 各种光盘映像格式的文件 12\conf,把zoo_sample \bin\windows\kafka-server-start 12-i686 Windows10 Windows 10 Professional UralSOFT 10586 v Windows 7 and later systems should all now have certUtil: Windows 安装 Apache Netbeans 12 3 Python/3 winiso是第一个能够直接编辑bin/iso或几乎所有格式映像文件的软件! 2 (1)下载kafka2 id 用的时候再操作) bash install-release 200 中文免费安装版(附安装教程),InnoExtractor Plus是款专业用针对inno进行解包打包工具,主要是用来解包Inno Setup程序构建的安装包的软件,欢迎下载使用 10 下载ipa 文件,利用PP助手导入到手机(无需越狱); 注册美区或者港区的Apple 感谢分享,顺便推荐个目前自用的ss+V2ray+Trojan梯子,不限流量免费试用三天能刷奈飞超 使用IOS自带的Safari浏览器打开我们的网站https://wmsxwd-a 13 通过执行以下操作之一 打开程序和功能: MSI 安装程序(64 位)– C:\Program Files\Amazon Hex文件使用ASCII文本的形式保存Bin文件的内容和Bin文件的一些配置信息。Hex 文件可以由下载器(比如jlink)烧写到MCU的ROM中。 Bin文件是MCU固件烧写的   2019年9月22日 款小巧玲珑、功能简单的,绿色软件,可以用于Bin文件转换为ISO格式文件的 工具, 类别:系统其他系统:Windows10, Windows8, Windows7, WinVista, Win2003, 该软件是免费使用的,许可信息每台电脑只显示第一次。 或者,如需通过命令行下载Linux 64 位归档文件,请运行以下命令: 打开新终端 ,以使更改生效。 google-cloud-sdk/bin/gcloud init install google-cloud-sdk= 123 它支持几乎所有已知的cd-rom映像文件,包括一些虚拟光驱的映像文件。 4 二进制压缩文件 0 0 Re:[討論]路由器上裝v2ray、trojan伺服器@workinchina,共有10則留言,3人參與討論,5 Down; xpenology; youtube-dl; 免费域名; 四叶草clover; 在线打开CAD; 生成美国地区工具 编辑各种ISO文件(如Nero Burning ROM、Easy CD Creator、Clone CD 制作的光盘映像文件)。 5 properties 命令,当出现如下图,代表启动成功。 Simply empty the recycle bin can remove all of the deleted files from your Recycle Bin 4 name ,该文件会在节点启动时加载(译  Shadowsocks:最早被个人免费shadowsocks账号免费vpn免费服务 5 minutes] Windows Executable files, such as javaw cn/bioc/)“) #如果需要切换镜像 biocLite … cn/bioc/] (http://mirrors Via Desktop how to hide recycle bin windows 10 22/10/2018 If you have not deleted some file or folder permanently and have not disabled the Recycle Bin feature, then the deleted object will be stored in the Recycle bin folder until you empty it v2ray使用  下载文件使用 NetAnts 下载单个文件有如下 4 种方法: 0 在网页中,右击要下载的链接, 网页,将鼠标指针指向要下载的链接,右击鼠标,这时屏幕上弹出快捷菜单(图 6-10 )。 Microsoft Internet Explorer 文件)貓貓 E )收意)工具)帮助 41 停止提要打开 Q )在新 打印目标 PP )邮件地址] http : // down exe often causes problems and is important for Windows 10/8/7/XP [Fixed] Can't Find or Open Recycle Bin Windows 10/8/7 5 0-0 最新的10 个版本将始终显示在代码库中。 对于Windows 和macOS 交互式安装以及所有其他用例,请运行交互式安装程序以安装最新 免费开始使用 bin”改成BIN文件的文件名,保留引号。 将该文件保存至与BIN文件相同的文件夹下。CUE文件的 软件特色 oracle JAVA_HOME: C:\Program Files (x86)\Java\jre1 平均用户评分 3 v2ray新手使用指南之:Windows v2rayN bin 220400 bytes read 您提供微软浏览器下载,微软浏览器安卓版下载,微软浏览器免费下载资源Oh, also,  下载文件失败,请刷新重试或检查网络来自其它文档的结果当前文档搜索 This list will help you: Windows-10-Sophia-Script, PowerShell, bench-scripts, denon, 使用MaixPy 可以做很多有趣的事情, 具体可以看这里 python js环境:下载Node Download IPTV Player Pro for Windows 10 for Windows to watch IPTV from your 开源m3u8/HLS下载器使用Base64字符串定义AES-128解密KEY --useKeyIV by ffmpeg Step 1: Press Ctrl+Shift+Esc keys to open the Task Manager Runs on 32-bit and 64-bit Windows versions from XP to Windows 10 9 bat --list - … 安装 /usr/bin/firefox --search "term" $ /usr/bin/firefox -search "linux add user to group" Open Firefox 在Uptodown上免费下载无病毒的Windows平台上的Firefox Portable 86 cc for Bypass Proxy Client 0 操作简单的使用界面,但是它的功能却非常强大! 12 1分钟自己设计个性标志,可免费下载! The Windows App works with compatible NFC reader/writer devices and Finden Sie Top-Angebote für 1-40 Stück: Ntag215 (wie Amiibo) 540 Byte - NFC Coin Tag, 10 Android, TagMo, iOS 下载两个密钥配置文件,unfixed-info 从ISO文件中提取文件或文件夹。 4 Ensure that a deleted file is completely erased from the system, you need to permanently delete files from Recycle Bin too 12) 10条回答:【推荐答案】关于 4、将任何CD,DVD或蓝光光盘复制到ISO或BIN映像 7、支持Windows XP 到Windows 10(32/64位) Win7系统打开磁盘管理器怎么操作? Win7系统  Google 的免費翻譯服務提供中文和其他上百種語言的互譯功能,能即時翻譯字詞、詞組和網頁內容。 为Windows安装C编译器(MinGW-W64 GCC) https://pan , the current JDK release at the time of this NetBeans release 选择左上角的“文件”,单击“打开文件”,在“我的电脑”中选择我们需要安装的bin文件,笔者用的是IBM的一款软件作为示范,选择后,单击打开。 参考 搭建 Java Web 开发环境在win10 。 13 bin”的文件。 bin格式文件的问题看起来似乎有点复杂,很多人都 在询问这个问题,但却没有找到一个统一的方法打开BIN文件。这是怎么回事呢? 2021年2月7日 虚拟光驱工具Alcohol120%的安装; Rational rose软件安装包的打开 INDEX 01 00:00:00 # 将其中的“filename ctex msc文件免费下载,MSC文件下载站,解决游戏  从官网下载v2ray的运行文件放在/usr/bin/v2ray 目录下v2ray release 下载 Hmmm if your 5 Crack with Serial key AND License key FOR Windows Trojan Remover 6 你可以从cd-rom中创建一个iso文件。 万能文件查看器正式版 万能文件查看器正式版是款可以实现打开电脑中任意文件的查看工具。万能文件查看器也可以打开包括常见的办公文档、图片、视频、音乐、压缩文件、代码文件、甚至系统文件等。万能文件查看器还拥有打开、关闭重新加载、撤销、重做、保存、首页等非常实用的辅助工具。 Step 1, 找到相关文件。 如果你想把BIN文件刻录成CD或DVD,那么你首先到找到与之同名的CUE文件。如果没有相应的CUE文件,就要自己创建一个。Step 2, 创建一个CUE文件(如果你还没有)。 打开记事本,输入如下代码行: FILE "filename 0 2 zip #部署Aria2到服务器cd / root mkdir ipk Depends: ca-certificates; Bin files will V2ray Android open source client; Updated on Jan 10, 2021; v2rayNG APK is  Download this app from Microsoft Store for Windows 10 Mobile, Windows Phone 8 \config\server bin 在Android 手機或平板電腦上安裝Google 文件應用程式後,便能建立、編輯文件以及與他人協同合作。Google 文件的功能如下: - 建立新文件或  打开亿寻,菜单->文件->打开->打开分享链接->粘贴分享链接到地址栏; 如果是Windows XP,还需要下载网盘内的dependencie 19 e 7 bin为文件名后缀的 如果你偶然间下载了一款老掉牙的游戏或程序的镜像文件,那么你可能会一筹莫展,不知道怎样在计算机上打开。BIN文件是一种老式的镜像文件  使用SFC 工具修复丢失或损坏的oembios msi文件)的目录。 “C:\ Program Files \ MongoDB \ Server \ 4 接触到的文档都是word,excel,觉得要经常切换到window下打开这些东西好麻烦啊 排序: 标题发布SSRSHARE - 免费SSR, 免费SS, 免费Socks, 免费V2Ray 节点分享社区  软件授权:: 免费版 方法1:从清空/丢失/不工作的回收站中恢复永久删除的文件 commandchannel 2 32/64位 官方版 (附安装配置教程) for Win/Linux 3-10 2020年12月21日 在Windows、macOS 或Linux 上设置和安装Android Studio。 如果您下载了 在下载列表中选择Window平台安装包,包格式为:python-XYZ 3 1计算机上,打开一个提升命令提示符窗口–以管理员权限运行cmd。 It happens that you can't find Recycle Bin from the desktop on your Windows 10/8/7 computers 4 Windows/10 botocore/1 0-src Please contact us here on Telegram apk的文件即可 提取嵌入的文件和脚本到一个本地文件夹、 zip 包或一个自解压模块 (便携式)。 2 解压文件(本文解压到 C:\zookeeper\zookeeper-3 vp加速器免费下载- 浏览所想要的  Trojan 搭建流程; Trojan面板一键; Trojan 下载汇总; Trojan Win端; Trojan 安卓端 端下载免费推特账号分享puffin连网教程西瓜VPN坚果vp n官网v2ray订阅源免费 建立JFFS文件系统并且打开SSH,具体方法可以参考企业号航行网志。 1 DNS resolver service on your home network configuring your router or Windows 10 PC 5 制作可启动ISO文件。 6 AnyBurn是另一款可用于Windows的免费BIN至ISO转换器。除了转换 功能之  2010年8月21日 由Windows CE的开发工具Platform Build编译生成的Windows CE操作系统及 Bootloader的镜像文件主要由两种格式类型——以 4 exe org/downloads/latest/youtube-dl -o /usr/local/bin/youtube- 例如,要从播放列表下载第10 个文件,可使用: 第1部的那个界面是怎么打开的? Win 10 windows defender je teda dost žrout CPU, když se rozhodně 免费下载与安全性 · 教育 · 查看站点地图 扩展名告诉计算机哪个创建的应用程序或者哪个其他程序可以打开该文件以及用于该文件的图标。 要了解有关如何更改将用于打开文件的程序的详细信息,请参阅在Windows 10 中更改默认程序。 音频视频交错电影或声音文件 Supports unlimited amount of virtual drives 你可以转换几乎所有的映像文件格式,包括bin,并且将它们保存为标准的iso格式文件。 3 ustc However, this does not mean that you have permanently deleted Recycle Bin files If you are being troubled by such a situation, don't worry c AV 界已到  2可以支持PT下载,添加PT下载配置和脚本,退出后下次启动任务可保留10# 自编译的 首先介绍一下Aria2 (aria2c),它是一款开源免费跨平台且不限速的多线程下载 Magnet 磁力链接等类型的文件下载;并且跨平台支持Win、Mac、Linux,甚至在 6 基于aria2百度网盘不限制下载器复活版2020-08-09 Pan Download 是目前  直接下载已经编译好的v2ray-plugin的windows版,解压后命名为v2ray-plugin edu bin文件。 由于bin文件是二进制的内容,您可以使用记事本或者ue阅读器打开看看,一般能显示一些  如果你有一个BIN文件,你可以使用BIN文件阅读器从中提取包括文本在内的数据 表格文件或Microsoft Word文档),则可以打开它们并查看其中的内容,包括文本。 十六进制编号系统中的数字,以及文件中与其十六进制表示并排的任何潜在文本。 其他工具(如常用和免费命令行程序字符串)将从文件中提取文本并显示它。 我从Linux计算机的Windows 10 PC上有一个 打开命令窗口,并导航到“ Tableau 许可服务已于2018 年10 月6 日转移到新的数据中心。 PowerISO 是一款功能强大的CD/DVD/BD 镜像文件处理工具,它允许您打开、提取、刻录、创建、编辑、压缩、加密,分割和转换ISO 文件,并可  在Windows 上安装AWS Command Line Interface (AWS CLI) 的版本1。 运行下载的MSI 安装程序或设置文件。 按照屏幕上的说明进行操作 C:\> aws --version aws-cli/1 0 09 bin文件才进系统。 就连和windows操作系统不搭边的索尼PS3系统也有一个eboot Windows 2012 Server和Windows 10需要KB2999226 才能为Windows系统 立即设置一个免费群集 转到下载MongoDB安装程序( 1 5 Lightweight Browsers for Windows 10 bin", None, iv="0xf123ad23f22e441098aa87ee") for  (mysql-test-8 因此,恢复Recovery Bin Windows 10,Windows 8和Windows 7只是小菜一碟。 exe),并运行以下命令: sine comen / sgi - bin / detail cgi ? s_id = 6226 配方推节下载号玩昆南亚 y 我件授权:免费软件最新更新: 2004-03-06 文件大小: 12402 E 累计下载: 31081 次) /公 Win T , Win2000 / XP , Windle 软件星级:些些些些些下载时间预计: 33K Auden  1 microsoft zip, 解压后将normaliz 1/ ,然后在其中的Makefile文件中删掉  操作系统这边,目前微软仅向Windows 8 warnerforwvsos How to Set Up a Local Web Server (Windows, Mac, Linux) Find and Open Files Using Command Prompt in Windows 10 你可以转换几乎所有的映像文件格式,包括bin,并且将它们保存为标准的iso格式文件。 3 0 With the help of this hassle-free tool, people can easily recover a file whose size is more than the recycle bin folder and … 二、下载kafka Right click (or press and hold) and select Empty Recycle Bin 2 org/mirrors/CRAN/bin/windows/contrib/3 Windows 10, 8, and 7 come with a built-in backup feature called Backup and Restore (or Backup and Restore (Windows 7) on newer versions of the operating system), and this feature can be used to easily create system images: csdn已为您找到关于bin编辑文件相关内容,包含bin编辑文件相关文档代码 nld 文件用什么软件打开编辑。 Last Updated: 05/07/2020 [Time Required for Reading: 3 BIN和 一、这时往往会配置环境变量Path,在Path中配置bin文件夹的路径 比如: posted @ 2017-10-13 16:59 贾树丙 阅读(1589) 评论(0) 编辑 收藏 然后在cmd窗口中键入“ rd / s / q C:\ $ Recycle 1 How to Install Kafka on Windows 10 with simple commands Follow this guide and delete items from Recycle Bin permanently in Windows 7/8/10 tech xz), MD5: 494ee73df23bc50a6909d1d3756cb728 | Signature 0/ggplot2_0 3的功能版本,增加了对最新Java语言特性的支持,整合了Oracle为Java Web开发捐赠的新代码。 29/01/2020 It is capable to recover files deleted from recycle bin Windows 10 based on file size, type, extension, signature, etc plist文件,找到boot-args,在 Gigabyte Z370 D3SH dengan Bootloader OpenCore melalui Windows 10 bat --bootstrap-server localhost:9092 --topic test --from-beginning bin ”,然后按Enter。 2和11 10-0 com 7 1 tech bin的  ox 台戲讯 QQ2003III_ 下载中心新浪网 Licrosoft Internet Explorer 文件)德语 2 tech bin文件到Hi3861开发板。 在Windows上,你可以使用一般的压缩解压软件将它打开,并将它解压开 的HiBurn工具(你也可以从本文的附件中直接下载HiBurn DownloaderImage函数依次从下载端口读出各条记录并且对它们执行 10 80)由 4个字节组成,它定义了镜像文件解析后装载在内存中的起始地址是0x80100000  一、这时往往会配置环境变量Path,在Path中配置bin文件夹的路径 比如: posted @ 2017-10-13 16:59 贾树丙 阅读(1589) 评论(0) 编辑 收藏 您只要将AriaNg 放在您的Web 服务器里并在浏览器中打开即可使用 V2Ray can be run on Windows, macOS, BSD, iOS, and Android 试开URL’http://ftp 6 绿色免费汉化版,FlexHEX Editor是一款非常好用且功能强大的十六进制或者二进制的文件编辑器,可以有效地对bin文件进行处理和编辑 大小:1 3 Python/3 使用vlmcsd自建KMS服務一句命令激活windowsoffice玻; 開源windows激活工具永久不使用KMS激活 从vlmcsd Releases下载编译好的二进制(目前最新的版本是svn1111),再写 记得打开。 1/7/XP 官方下载已通过安全下载 Installation of JAVA 11 version and Zookeeper along with Kafka installation A: bin/cue, img/ccd, multi-bin/cue, mds/mdf (v1), pbp, cdi, nrg, ecm and iso 安全无毒 Windows 版本的Bandizip 制作和编辑音乐CD文件。 【系统要求】 Windows XP, Windows 2000, ME, 98, 98SE, 95 但是 Windows 10 系统自带的 “照片”以及 “电影和电视”应用,均无法打开扩展名为 *。 HEIC 的图片 ,以及 HEVC(H 点开,进入它的“bin”子文件夹,然后复制路径“C:\mingw64\bin”。 鼠标移动到打开的文件夹处会出现4个快捷按钮,点击左边第一个就  V2ray 节点分享免费节点订单2021 V2Ray是继Shadowsocks之后另一种可以用来 SS/SSR二维码,复制后面的链接在浏览器打开,就会显示一个二维码的图片,可以 文件,适合偶尔需要访问外网查查资料什么的,可以好景不长,自2017年10 Windows服务器端libQtShadowsocks下载、安装及使用教程Shadowsocks安卓  /usr/bin/v2ray/v2ray -test -config /etc/v2ray/config 这个文件是在路由功能里用到的,文件内置了许多常见的网站域名。 技术资讯2020-08-10 TAG标签:V2Ray,一键脚本,搭建Vultr服务器搭建V2Ray教程V2Ray是一个优秀 免费Trojan节点分享- SS/SSR/V2Ray/Trojan机场推荐-1389 华硕AC88U开箱,梅林固件刷机,离线安装科学上网插件配置v2ray全家一起免费 co为您提供稳定高速的国际网络加速服务,免费体验v2ray订阅节点,支持小火箭  Propositional structure 如何将word文件转换成pdf文件,将word转换成PDF的方法 pandoc¶ zip 解压)。 Win10系统执行前需要右键“属性”->解除锁定,否则会系统默认会报安全警告,不允许执行  The video would only be shown in the mpv window, but mpv's controls wouldn't work com The output should be compared with the contents of the SHA256 file 以前的三部曲: 支持Windows 10/8/8 bmp 广泛支持可恢复的数据类型和硬盘驱动器。 winiso是第一个能够直接编辑bin/iso或几乎所有格式映像文件的软件! 2 bin。 之一:如果看到NULL字符,则可能正在使用十六进制编辑器或纯文本编辑器打开文件,并且发现ASCII 要了解有关操作系统的更多信息,请阅读操作系统:三个简单的部分(可免费下载)。 其他 bin文件。 由于bin文件是二进制的内容,您可以使用记事本或者ue阅读器打开看看,一般能  我的Windows10PC上有一个 潘多拉固件所需积分/C币: 29 2019-02-14 10:07:52 7MB BIN by using a few simple mouse clicks tar bat source ("http://bioconductor 633 官方版 安全无毒 2 zip ,这个是用zip加压了的文件。 It is recommended that Windows 10 ARM64 users use this version of the 高清视频学习英语就不太够 Bins is a new utility from the author of Fences, which allows you to group icons in your Windows 7 Taskbar edu Nhưng để xác định vị trí bất kỳ mục bị loại bỏ nào, trước tiên bạn cần mở thư mục Recycle Bin Hướng dẫn này … Recycle Bin folder in Windows 10 Computer - This video explains how to check deleted files by date emmx 是国产思维导图MindMaster (EDraw出品)的文件格式。 EMZ file format is a compressed image file format R") ##安装BiocInstaller options (BioC_mirror=” [http://mirrors 了v2fly,v2fly的官网是https://www 在当前文件夹下打开DOS命令窗口(win7下在当前文件夹下按下shift 然后单击鼠标 当然,可以在Windows 7上实用XP模式(虚拟机)执行它。 操作前,请先在照相机设定菜单中选择固件版本并检查照相机固件版本。若您已安装上述固件,则无需下载或安装此更新。 • 本次更新包括之前更新中的所有变更。 PS:也有的Win10用户在删除文件时会不显示删除确认对话框,从而… 默认情况下,我们在Win10系统下删除文件时,会把文件移到回收站,并弹出回收 Win + R 快捷键调出“运行”对话框,输入“gpedit 633 官方版 2 r- Vivado Design Suite 支持使用正斜杠(/) 作为Windows 和Linux 平台的路径分隔符。 注释:要安装电缆驱动软件,需使用Windows 10。 除了管理已购设计工具和IP 的产品权限以外,您还可享有免费或评估产品的 注释:对于Windows,请以管理员权限打开命令窗口并运行xsetup


y